The Conjuring 2 - 2016 720p HDTS - x264 - Zi$t-CTRC

seeders: 170
leechers: 35
updated:
Added by Zist3133210 in Movies
Torrent verified. Downloaded 11,838 times.

DownloadFast Safe Anonymous
movies, software, shows...
  • add The Conjuring 2 to bookmarks
  • Release date: 10 June 2016
  • Writers: Carey Hayes (screenplay), Chad Hayes (screenplay), James Wan (screenplay), David Leslie Johnson (screenplay), Carey Hayes (story), Chad Hayes (story), James Wan (story)
  • Director: James Wan
  • Language: English
Cast: Vera Farmiga, Patrick Wilson and others
Summary:

Lorraine and Ed Warren travel to north London to help a single mother raising four children alone in a house plagued by malicious spirits.

Written by Sasidhar.32.13K
The Conjuring 2 - 2016 720p HDTS - x264 - Zi$t-CTRC (Size: 844.65 MB)
  CTRC info.txt 433 bytes
  The Conjuring 2 - 2016 720p HDTS - x264 - Zi$t-CTRC.mp4 844.65 MB

Description

Upscaled


image


image


image


image image image image image image


image



General
Complete name : The Conjuring 2 - 2016
Format : MPEG-4
Format profile : Base Media
Codec ID : isom (isom/iso2/avc1/mp41)
File size : 845 MiB
Duration : 2h 7mn
Overall bit rate mode : Variable
Overall bit rate : 929 Kbps
Writing application : Lavf55.22.102

Video
ID : 2
Format : AVC
Format/Info : Advanced Video Codec
Format profile : [email protected]
Format settings, CABAC : Yes
Format settings, ReFrames : 4 frames
Codec ID : avc1
Codec ID/Info : Advanced Video Coding
Duration : 2h 7mn
Bit rate : 850 Kbps
Width : 1 136 pixels
Height : 504 pixels
Display aspect ratio : 2.25:1
Frame rate mode : Constant
Frame rate : 29.970 (29970/1000) fps
Color space : YUV
Chroma subsampling : 4:2:0
Bit depth : 8 bits
Scan type : Progressive
Bits/(Pixel*Frame) : 0.050
Stream size : 775 MiB (92%)

Audio
ID : 1
Format : AAC
Format/Info : Advanced Audio Codec
Format profile : LC
Codec ID : 40
Duration : 2h 6mn
Bit rate mode : Variable
Bit rate : 68.5 Kbps
Maximum bit rate : 192 Kbps
Channel(s) : 2 channels
Channel(s)_Original : 6 channels
Channel positions : Front: L C R, Side: L R, LFE
Sampling rate : 48.0 KHz
Frame rate : 46.875 fps (1024 spf)
Compression mode : Lossy
Stream size : 62.2 MiB (7%)
Default : Yes
Alternate group : 1
Language : English


image

Related Torrents

torrent name size files age seed leech

Sharing Widget


Download torrent
844.65 MB
seeders:179
leechers:34
The Conjuring 2 - 2016 720p HDTS - x264 - Zi$t-CTRC



To share this torrent use the code below and insert it into comments, status messages, forum posts or your signature.

Torrent: The Conjuring 2 - 2016 720p HDTS - x264 - Zi$t-CTRC

Trackers

tracker name
http://pow7.com/announce
udp://tracker.openbittorrent.com:80/announce
udp://tracker.coppersurfer.tk:6969/announce
http://torrent.gresille.org/announce
udp://tracker.leechers-paradise.org:6969/announce
udp://p4p.arenabg.com:1337/announce
udp://tracker.aletorrenty.pl:2710/announce
udp://tracker.opentrackr.org:1337/announce
http://tracker.dutchtracking.nl/announce
udp://tracker.eddie4.nl:6969/announce
µTorrent compatible trackers list

Locations

name
KickassTorrents
Torrent hash: DE34E9D830E6A9F96A32CF99DACCF5FEFAB2F8ED

Top Comments

2
leelou0525
not good at all do not download

All Comments

audio
5/10
video
6/10
please, leave only comments related to that torrent
Sign In

Poor video quality...definitely not 720p
audio: 4video: 5
its working but video and audio are ok not so good. but vedio doesn't stop. so overall it's ok.......
thanks bro...
not good at all do not download
Why though? give some reasons, details, specifics

how is the quality....is it watchable?
Can someone rate the audio and video please
audio: 3video: 4
audio: 6video: 6
audio: 10video: 10

User Opinions

Report a bug Open chat